Elektroda.pl
Elektroda.pl
X
Proszę, dodaj wyjątek dla www.elektroda.pl do Adblock.
Dzięki temu, że oglądasz reklamy, wspierasz portal i użytkowników.

Zacinający film hd na telewizorze LG 37LE4500

slawomir14 15 Wrz 2011 17:13 1373 0
  • #1
    slawomir14
    Poziom 8  
    Podpiąłem dysk zewnętrzny 1TB do portu USB na TV i uruchomiłem film hd w formacie mkv. Gdy mam włączoną polską ścieżkę dźwiękową (Ac3) film zacina się ale gdy zmienię na angielską (DTS) obraz idzie płynnie ale za to niema dźwięku.

    Czym jest to spowodowane i jak temu zaradzić?

    a oto dokładne parametry filmu


    Complete name : J:\Return of the King Extended Edition HD 1080p x264.mkv
    Format : Matroska
    File size : 17.5 GiB
    Duration : 4h 10mn
    Overall bit rate : 9 999 Kbps
    Encoded date : UTC 2010-06-05 16:20:41
    Writing application : mkvmerge v3.3.0 ('Language') built on Mar 24 2010 14:59:24
    Writing library : libebml v0.8.0 + libmatroska v0.9.0

    Video
    ID : 1
    Format : AVC
    Format/Info : Advanced Video Codec
    Format profile : High(malpa)L4.1
    Format settings, CABAC : Yes
    Format settings, ReFrames : 4 frames
    Codec ID : V_MPEG4/ISO/AVC
    Duration : 4h 10mn
    Bit rate : 8 597 Kbps
    Nominal bit rate : 9 058 Kbps
    Width : 1 920 pixels
    Height : 800 pixels
    Display aspect ratio : 2.40:1
    Frame rate : 23.976 fps
    Color space : YUV
    Chroma subsampling : 4:2:0
    Bit depth : 8 bits
    Scan type : Progressive
    Bits/(Pixel*Frame) : 0.233
    Stream size : 15.0 GiB (86%)
    Writing library : x264 core 59 r808M ff5059a

    Audio #1
    ID : 2
    Format : DTS
    Format/Info : Digital Theater Systems
    Codec ID : A_DTS
    Duration : 4h 10mn
    Bit rate mode : Constant
    Bit rate : 755 Kbps
    Channel(s) : 6 channels
    Channel positions : Front: L C R, Side: L R, LFE
    Sampling rate : 48.0 KHz
    Bit depth : 24 bits
    Compression mode : Lossy
    Stream size : 1.32 GiB (8%)
    Title : DTS ES 6.1
    Language : English

    Audio #2
    ID : 3
    Format : AC-3
    Format/Info : Audio Coding 3
    Mode extension : CM (complete main)
    Codec ID : A_AC3
    Duration : 4h 10mn
    Bit rate mode : Constant
    Bit rate : 448 Kbps
    Channel(s) : 6 channels
    Channel positions : Front: L C R, Side: L R, LFE
    Sampling rate : 48.0 KHz
    Bit depth : 16 bits
    Compression mode : Lossy
    Delay relative to video : 25ms
    Stream size : 802 MiB (4%)
    Title : AC3 5.1
    Language : Polish

    Text #1
    ID : 4
    Format : UTF-8
    Codec ID : S_TEXT/UTF8
    Codec ID/Info : UTF-8 Plain Text
    Language : Polish

    Text #2
    ID : 5
    Format : UTF-8
    Codec ID : S_TEXT/UTF8
    Codec ID/Info : UTF-8 Plain Text
    Language : English