Elektroda.pl
Elektroda.pl
X
Proszę, dodaj wyjątek www.elektroda.pl do Adblock.
Dzięki temu, że oglądasz reklamy, wspierasz portal i użytkowników.

poł. tv LG 32LV3550 z kinem dom. optical audio/ Odwazanie filmów mkv z pendrive

viqud 14 Lis 2011 00:31 3167 8
  • #1 14 Lis 2011 00:31
    viqud
    Poziom 7  

    witam.
    posiadam TV LG 32LV3550 z wyjsciem "optical digital audio out" i moje pytanie brzmi czy jesli kupie jakies kino domowe 5.1 z wejsciem "optical audio in" to czy takie kino bedzie odtwarzało dzwiek z tego TV na wszystkich głosnikach ?

    0 8
  • Pomocny post
    #2 14 Lis 2011 00:34
    opamp
    Użytkownik obserwowany

    Tak. A nie lepiej dać po HDMI? Bo światłowód to jest to samo co cyfrowy czarny cinch :)

    0
  • Pomocny post
    #3 14 Lis 2011 14:42
    romeok01
    Poziom 35  

    Tak przy takim połączeniu będziesz miał dźwiek na wszystkich głośnikach pod warunkiem źródła sygnału dźwięku przestrzennego Dolby Digital.

    0
  • #4 14 Lis 2011 16:26
    viqud
    Poziom 7  

    ok, to moze troche sprecyzuje :)
    przerzucam sie na odbiór cyfrowej TV DVBT Jestem w dobrym zasiegu mux 2 i 3. i teraz chodzi tylko o to ze jak poprostu bede ogladał Telewizje to chciałbym sie cieszyc dzwiekiem z kina domowego i w sumie jest mi to obojetne czy przez hdmi czy przez optical audio, poprostu zeby jakos to wszystko współpracowało :)

    wie ktos moze w jakim systemie jest dzwiek z DVBT ??

    0
  • #6 15 Lis 2011 18:53
    viqud
    Poziom 7  

    poszukam jakis zestaw kina z HDMI i Optic audio (tak dla pewnosci) i zobacze jak to sie bedzie wszystko miało w rzeczywistosci, jak cos to za jakis czas odświeże ten temat i podzielę sie spostrzeżeniami :)

    0
  • #7 27 Lis 2011 10:55
    viqud
    Poziom 7  

    kino zakupione i połaczone przez wyj/wej optical.

    wszystko ładnie smiga niezalenie od tego czy program jest nadawany w dolby digital czy MPEG, dzwiek jest słyszalny w kazdym z głosników :)

    Dodano po 25 [minuty]:

    tylko teraz mam jeszcze inny problem odnoscie samego tv i ogladania filmów z pendrive.
    filmy avi. 720p sa bardzo ładnie odtwazane, natomiast jest problem z filmami mkv. film sie ładnie zaczyna, na poczatku i obraz i dzwiek sa takie jak powinny byc, natomiast po ogladnieciu ok. 10 min. obraz i dzwioek zaczynaja sie strasznie przycinac co całkowicie uniemozliwia dalsze ogladanie.

    moze ktos wie o co moze chodzic ???

    Pendrive kingstone 8gb sformatowany do NTFS.



    obsługiwane formaty przez tv:

    DAT, MPG, MPEG, VOB, AVI, DIVX, MP4, MKV,
    TS, TRP, TP, ASF, WMV, FLV)

    Obsługiwane formaty filmów: *.mpg/ *.mpeg/
    *dat/ *.ts/ *.trp/ *.tp/ *.vob/ *.mp4/ *.mov/ *.mkv/
    *.divx/ *.avi/ *.asf/ *.wmv/ *.flv/ *.avi (motion-jpeg)/
    *.mp4 (motion-jpeg)/ *.mkv (motion-jpeg)
    Obsługiwane formaty plików wideo: DivX3.11,
    DivX4.12, DivX5.x, DivX6, Xvid1.00, Xvid1.01,
    Xvid1.02, Xvid1.03, Xvid1.10 beta-1/beta-2,
    Mpeg-1, Mpeg-2, Mpeg-4, H.264/AVC, VC1,
    JPEG, Sorenson H.263

    Obsługiwane formaty audio: Dolby Digital, AAC,
    Mpeg, MP3, LPCM, HE-AAC, ADPCM, WMA

    Przepływność : od 32 kb/s do 320 kb/s (MP3)

    Obsługiwane formaty napisów zewnętrznych:
    *.smi/*.srt/*.sub (MicroDVD, Subviewer1.0/2.0)/*.
    ass/*.ssa/*.txt (TMPlayer)/*.psb (PowerDivX)

    Obsługiwany format napisów wewnętrznych:
    tylko XSUB (format napisów używany w plikach
    DivX6)




    a tutaj daje media info przykładowego filmu z którym jest problem:

    Video: MPEG4 Video (H264) 1280x536 23.98fps [Video]
    Audio: Dolby AC3 48000Hz 6ch [Audio]


    General
    Unique ID : 237304540119426658901202762461219425889 (0xB28731254E81DFF6AC64DFD176F88E61)
    Complete name : D:\Filmy HD\Larry Crowne HD.mkv.mkv
    Format : Matroska
    Format version : Version 2
    File size : 4.10 GiB
    Duration : 1h 38mn
    Overall bit rate : 5 948 Kbps
    Encoded date : UTC 2011-11-02 16:59:19
    Writing application : mkvmerge v4.4.0 ('Die Wiederkehr') built on Oct 31 2010 21:52:48
    Writing library : libebml v1.0.0 + libmatroska v1.0.0

    Video
    ID : 1
    Format : AVC
    Format/Info : Advanced Video Codec
    Format profile : High(malpa)L4.1




    Format settings, CABAC : Yes
    Format settings, ReFrames : 5 frames
    Codec ID : V_MPEG4/ISO/AVC
    Duration : 1h 38mn
    Bit rate : 5 580 Kbps
    Width : 1 280 pixels
    Height : 536 pixels
    Display aspect ratio : 2.40:1
    Frame rate : 23.976 fps
    Color space : YUV
    Chroma subsampling : 4:2:0
    Bit depth : 8 bits
    Scan type : Progressive
    Bits/(Pixel*Frame) : 0.339
    Stream size : 3.75 GiB (92%)
    Writing library : x264 core 119 r2106 07efeb4
    Encoding settings : cabac=1 / ref=5 / deblock=1:0:0 / analyse=0x3:0x133 / me=umh / subme=7 / psy=1 / psy_rd=1.00:0.00 / mixed_ref=1 / me_range=16 / chroma_me=1 / trellis=1 / 8x8dct=1 / cqm=0 / deadzone=21,11 / fast_pskip=1 / chroma_qp_offset=-2 / threads=12 / sliced_threads=0 / nr=0 / decimate=1 / interlaced=0 / bluray_compat=0 / constrained_intra=0 / bframes=3 / b_pyramid=2 / b_adapt=2 / b_bias=0 / direct=3 / weightb=1 / open_gop=0 / weightp=2 / keyint=250 / keyint_min=23 / scenecut=40 / intra_refresh=0 / rc=2pass / mbtree=0 / bitrate=5580 / ratetol=1.0 / qcomp=0.60 / qpmin=0 / qpmax=69 / qpstep=4 / cplxblur=20.0 / qblur=0.5 / ip_ratio=1.40 / pb_ratio=1.30 / aq=1:1.00
    Language : English
    Default : Yes
    Forced : No

    Audio
    ID : 2
    Format : AC-3
    Format/Info : Audio Coding 3
    Mode extension : CM (complete main)
    Codec ID : A_AC3
    Duration : 1h 38mn
    Bit rate mode : Constant
    Bit rate : 384 Kbps
    Channel(s) : 6 channels
    Channel positions : Front: L C R, Side: L R, LFE
    Sampling rate : 48.0 KHz
    Bit depth : 16 bits
    Compression mode : Lossy
    Delay relative to video : 19s 500ms
    Stream size : 271 MiB (6%)
    Language : Polish
    Default : Yes
    Forced : No

    0
  • #8 18 Gru 2011 17:37
    gbcolin
    Poziom 9  

    Mam podobny problem z tym tv, tzn mkv h.264 będące w nazwie odtwarza a z x264 już nie... Czy ktoś może jasno i konkretnie napisać jakich filmów szukać, żeby obejrzeć coś w końcu w full hd na naszym tv z usb?? Na co zwrócić uwagę? Są również filmy z nieopisanym koderem i jest same rozszerzenie mkv co wtedy?

    0
  • #9 19 Gru 2011 09:39
    aqent
    Poziom 2  

    Moze nie wyrabia po prostu z fullhd. Lepiej podlaczyc kompa i po problemie.

    0