Elektroda.pl
Elektroda.pl
X

Search our partners

Find the latest content on electronic components. Datasheets.com
Elektroda.pl
Please add exception to AdBlock for elektroda.pl.
If you watch the ads, you support portal and users.

Odtwarzacz BD nie zawsze skaluje do wymaganej rozdzielczości.

onmeturn 13 Mar 2012 12:48 987 0
  • #1
    onmeturn
    Level 9  
    Odtwarzacz BD nie zawsze skaluje do wymaganej rozdzielczości.

    Mam odtwarzacz BluRay LG BD550.
    Odtwarza on pliki MKV.

    Problem polega na tym,że nie zawsze skaluje do wymaganej rozdzielczości.
    Nie zawsze bo niektóre filmy odtwarza prawidłowo,niektóre nie.
    Zdarza się to gdy film ma:
    Width : 1280 pixels
    Height : 536 pixels
    lub 528px

    Co dziwne film w rozdzielczości :
    Width : 1280 pixels
    Height : 544 pixels
    jest skalowany poprawnie.


    Odtwarzacz rozciąga do 720px w pionie ,a obraz wygląda wtedy jak jajko :/
    Możliwe,że to zależne od jakiejś funkcji w MKV...może...
    Macie jakieś pomysły?
    Odtwarzacz BD nie zawsze skaluje do wymaganej rozdzielczości.

    Próbuje zmieniać w ustawieniach odtwarzacza typu:
    -Obraz 16:9
    -Obraz pełny
    -Obraz Oryginalny
    i w dwóch pierwszych rozdzielczościach niema wogóle efektu zmiany skalowania obrazu.W trzeciej czyli 544 pixels funkcje powyższe działają i obraz mogę do woli rozciągać, pomniejszać itd.
    Odtwarzacz BD nie zawsze skaluje do wymaganej rozdzielczości.




    Poniżej dokładne dane 3 filmów:

    FILM nr 1 rozdzielczośc w pionie 536pixeli

    Quote:
    Format : Matroska
    File size : 6.55 GiB
    Duration : 2h 38mn
    Overall bit rate : 5 932 Kbps
    Writing application : mkvmerge v4.1.1 ('Bouncin' Back') built on Jul 3 2010 22:54:08
    Writing library : libebml v1.0.0 + libmatroska v1.0
    Video #1
    ID : 1
    Format : AVC
    Format/Info : Advanced Video Codec
    Format profile : High(malpa)L4.1
    Format settings, CABAC : Yes
    Format settings, ReFrames : 5 frames
    Format settings, GOP : M=2, N=27
    Codec ID : V_MPEG4/ISO/AVC
    Duration : 2h 38mn
    Bit rate : 4 421 Kbps
    Width : 1 280 pixels
    Height : 536 pixels
    Display aspect ratio : 2.40:1
    Frame rate : 23.976 fps
    Color space : YUV
    Chroma subsampling : 4:2:0
    Bit depth : 8 bits
    Scan type : Progressive
    Bits/(Pixel*Frame) : 0.269
    Stream size : 4.75 GiB (73%)
    Writing library : x264 core 120 r2164 da19765
    Encoding settings : cabac=1 / ref=5 / deblock=1:0:0 / analyse=0x3:0x133 / me=umh / subme=7 / psy=1 / psy_rd=1.00:0.00 / mixed_ref=1 / me_range=16 / chroma_me=1 / trellis=1 / 8x8dct=1 / cqm=0 / deadzone=21,11 / fast_pskip=0 / chroma_qp_offset=-2 / threads=12 / sliced_threads=0 / nr=0 / decimate=1 / interlaced=0 / bluray_compat=0 / constrained_intra=0 / bframes=3 / b_pyramid=2 / b_adapt=1 / b_bias=0 / direct=1 / weightb=1 / open_gop=0 / weightp=2 / keyint=250 / keyint_min=23 / scenecut=40 / intra_refresh=0 / rc_lookahead=40 / rc=2pass / mbtree=1 / bitrate=4421 / ratetol=1.0 / qcomp=0.60 / qpmin=0 / qpmax=69 / qpstep=4 / cplxblur=20.0 / qblur=0.5 / ip_ratio=1.40 / aq=1:1.00



    FILM nr 2 rozdzielczośc w pionie 528pixeli

    Quote:
    Format : Matroska
    File size : 4.37 GiB
    Duration : 1h 41mn
    Overall bit rate : 6 172 Kbps
    Writing application : x264.exe
    Writing library : mkv2rls v1.3 (date: 2010 aug 28)
    Video #1
    ID : 1
    Format : AVC
    Format/Info : Advanced Video Codec
    Format profile : High(malpa)L4.1
    Format settings, CABAC : Yes
    Format settings, ReFrames : 5 frames
    Format settings, GOP : M=4, N=48
    Codec ID : V_MPEG4/ISO/AVC
    Duration : 1h 41mn
    Bit rate : 4 662 Kbps
    Width : 1 280 pixels
    Height : 528 pixels
    Display aspect ratio : 2.40:1
    Frame rate : 23.976 fps
    Color space : YUV
    Chroma subsampling : 4:2:0
    Bit depth : 8 bits
    Scan type : Progressive
    Bits/(Pixel*Frame) : 0.288
    Stream size : 3.21 GiB (74%)
    Writing library : x264 core 116 r2074 2641b9e
    Encoding settings : cabac=1 / ref=5 / deblock=1:0:0 / analyse=0x3:0x2 / me=umh / subme=7 / psy=1 / psy_rd=1.00:0.00 / mixed_ref=1 / me_range=16 / chroma_me=1 / trellis=1 / 8x8dct=1 / cqm=0 / deadzone=21,11 / fast_pskip=1 / chroma_qp_offset=-2 / threads=12 / sliced_threads=0 / nr=0 / decimate=1 / interlaced=0 / bluray_compat=0 / constrained_intra=0 / bframes=3 / b_pyramid=2 / b_adapt=1 / b_bias=0 / direct=1 / weightb=0 / open_gop=0 / weightp=2 / keyint=250 / keyint_min=23 / scenecut=40 / intra_refresh=0 / rc=2pass / mbtree=0 / bitrate=4662 / ratetol=1.0 / qcomp=0.60 / qpmin=0 / qpmax=51 / qpstep=4 / cplxblur=20.0 / qblur=0.5 / ip_ratio=1.40 / pb_ratio=1.30 / aq=1:1.00




    FILM nr 3 rozdzielczośc w pionie 544pixeli

    Quote:
    Format : Matroska
    File size : 5.04 GiB
    Duration : 1h 49mn
    Overall bit rate : 6 608 Kbps
    Encoded date : UTC 2012-01-19 00:07:56
    Writing application : mkvmerge v4.0.0 ('The Stars were mine') built on Jun 6 2010 16:18:42
    Writing library : libebml v1.0.0 + libmatroska v1.0.0
    Video #1
    ID : 1
    Format : AVC
    Format/Info : Advanced Video Codec
    Format profile : High(malpa)L4.1
    Format settings, CABAC : Yes
    Format settings, ReFrames : 12 frames
    Codec ID : V_MPEG4/ISO/AVC
    Duration : 1h 49mn
    Bit rate : 5 100 Kbps
    Width : 1 280 pixels
    Height : 544 pixels
    Display aspect ratio : 2.35:1
    Frame rate : 23.976 fps
    Color space : YUV
    Chroma subsampling : 4:2:0
    Bit depth : 8 bits
    Scan type : Progressive
    Bits/(Pixel*Frame) : 0.305
    Stream size : 3.79 GiB (75%)
    Writing library : x264 core 120 r2145 748fe16
    Encoding settings : cabac=1 / ref=12 / deblock=1:-3:-3 / analyse=0x3:0x133 / me=umh / subme=10 / psy=1 / psy_rd=0.90:0.00 / mixed_ref=1 / me_range=48 / chroma_me=1 / trellis=2 / 8x8dct=1 / cqm=0 / deadzone=21,11 / fast_pskip=0 / chroma_qp_offset=-2 / threads=12 / sliced_threads=0 / nr=0 / decimate=0 / interlaced=0 / bluray_compat=0 / constrained_intra=0 / bframes=7 / b_pyramid=2 / b_adapt=2 / b_bias=0 / direct=3 / weightb=1 / open_gop=0 / weightp=2 / keyint=240 / keyint_min=24 / scenecut=40 / intra_refresh=0 / rc=2pass / mbtree=0 / bitrate=5100 / ratetol=1.0 / qcomp=0.70 / qpmin=0 / qpmax=69 / qpstep=4 / cplxblur=20.0 / qblur=0.5 / ip_ratio=1.40 / pb_ratio=1.25 / aq=1:1.10