Elektroda.pl
Elektroda.pl
X
Elektroda.pl
Proszę, dodaj wyjątek dla www.elektroda.pl do Adblock.
Dzięki temu, że oglądasz reklamy, wspierasz portal i użytkowników.

Podkręcanie CPU i karty graficznej w celu oglądania filmów AVCHD mts FULL HD

30 Kwi 2012 12:59 1993 2
  • Poziom 12  
    Witajcie,
    Podobny post umieściłem w dziale film Link.
    Filmy nakręcone kamerą FullHD w formacie AVCHD odtwarzane są na moim kompie jedynie około 11 kl/sek...

    Laptop Fujitsu Siemens Amilo a1650G (winXP SP3, procesor AMD Turion 64 Mobile technology ML-40 - 2.2 GHz, 1 MB L2 Cashe, 1 GB RAM PC/2700 DDR333, grafika ATI Mobility Radeon Xpress 200 pamięć 128MB współdzielona z RAM).

    Procesor podkręciłem programem SetFSB 2.2 do 2376MHz (FSB 216/DDR 432/PCI-E 163/PCI 33,3 MHz) i zegar karty graficznej programem SYSTool v1.0 z 250 na 330 MHz. Po tym zabiegu ilość klatek na podobnym poziomie, obciążenie procesora na poziomie powyżej 90 % nawet pod 99 podchodzi. Pamięci Ram zdaje się że wystarcza, ponieważ odtwarzacz alokuje 112MB, a wszystkie procesy łącznie trochę ponad 400 MB. Czy można coś jeszcze zrobić na tym komputerze aby uzyskać płynność odtwarzania ??? Może gdzieś indziej jest wąskie gardło ??? 2376MHz nie poradzi sobie z tym formatem ??? Czy komuś na podobnym spręcie udało się odtworzyć AVCHD???

    Odtwarzam polecanym do AVCHD programem Media Player Classic - Home Cinema z kodekiem Core AVC.

    Poniżej informacje o pliku z programu Media Player Classic - Home Cinema oraz zrzut z programu GPU-Z o właściwościach podkręconej karty graficznej :

    General
    ID : 1 (0x1)
    Complete name : C:\Documents and Settings\Domek\Moje dokumenty\Moje wideo\09-24-2011\09-24-2011_160339.m2ts
    Format : BDAV
    Format/Info : Blu-ray Video
    File size : 393 MiB
    Duration : 3mn 21s
    Overall bit rate mode : Variable
    Overall bit rate : 16.4 Mbps
    Maximum Overall bit rate : 18.0 Mbps

    Video
    ID : 4113 (0x1011)
    Menu ID : 1 (0x1)
    Format : AVC
    Format/Info : Advanced Video Codec
    Format profile : High(malpa)L4.0
    Format settings, CABAC : Yes
    Format settings, ReFrames : 4 frames
    Format settings, GOP : M=3, N=12
    Codec ID : 27
    Duration : 3mn 21s
    Bit rate mode : Variable
    Bit rate : 15.5 Mbps
    Maximum bit rate : 16.8 Mbps
    Width : 1 920 pixels
    Height : 1 080 pixels
    Display aspect ratio : 16:9
    Frame rate : 25.000 fps
    Color space : YUV
    Chroma subsampling : 4:2:0
    Bit depth : 8 bits
    Scan type : Interlaced
    Scan order : Top Field First
    Bits/(Pixel*Frame) : 0.298
    Stream size : 371 MiB (94%)

    Audio
    ID : 4352 (0x1100)
    Menu ID : 1 (0x1)
    Format : AC-3
    Format/Info : Audio Coding 3
    Mode extension : CM (complete main)
    Codec ID : 129
    Duration : 3mn 21s
    Bit rate mode : Constant
    Bit rate : 256 Kbps
    Channel(s) : 2 channels
    Channel positions : Front: L R
    Sampling rate : 48.0 KHz
    Bit depth : 16 bits
    Compression mode : Lossy
    Delay relative to video : -80ms
    Stream size : 6.14 MiB (2%)

    Text
    ID : 4608 (0x1200)
    Menu ID : 1 (0x1)
    Format : PGS
    Codec ID : 144
    Duration : 3mn 20s
    Delay relative to video : -80ms

    Podkręcanie CPU i karty graficznej w celu oglądania filmów AVCHD mts FULL HD
  • Pomocny post
    Poziom 43  
    Ten CPU jest za słaby do filmów HD nawet po OC.

    Podkręcanie grafiki nic nie da. Ta karta nie wspiera dekodowania materiału HD.
  • Poziom 12  
    Dzięki za odpowiedź. W takim razie nic nie robię już z tym kompem, jest za słaby - przekonałem się o tym sam, a Pan pomógł mi rozwiać moje wątpliwości na forum. Trzeba będzie zainwestować w nowy sprzęt....
    pozdrawiam
    Leszek