Elektroda.pl
Elektroda.pl
X

Search our partners

Find the latest content on electronic components. Datasheets.com
Elektroda.pl
Please add exception to AdBlock for elektroda.pl.
If you watch the ads, you support portal and users.

Konwersja plików wideo .ts

asdqwerty 20 Jul 2012 15:11 10529 9
  • #1
    asdqwerty
    Level 21  
    Do jakiego formatu najlepiej konwertować ten format? Pochodzi z nagrań z dekodera. Konwertowałem na avi, ale efekt mnie nie zadowala. Być może problem tkwi w ustawieniach programu konwertującego.
  • #3
    User removed account
    User removed account  
  • #4
    asdqwerty
    Level 21  
    Chciałbym konwertować do .avi. Zamieszczam poniżej właściwości nagrania. Może pozwolą one na wskazanie jakiego użyć: kodowania, bitrate, fps.

    Code:

    General
    ID                               : 1 (0x1)
    Format                           : MPEG-TS
    File size                        : 926 MiB
    Duration                         : 45mn 3s
    Overall bit rate                 : 2 874 Kbps
    Network name                     : Emitel

    Video
    ID                               : 1502 (0x5DE)
    Menu ID                          : 15 (0xF)
    Format                           : AVC
    Format/Info                      : Advanced Video Codec
    Format version                   : Version 2
    Format profile                   : Main(malpa)L3.0
    Format settings, CABAC           : Yes
    Format settings, ReFrames        : 2 frames
    Codec ID                         : 27
    Duration                         : 45mn 2s
    Bit rate                         : 2 603 Kbps
    Width                            : 720 pixels
    Height                           : 576 pixels
    Display aspect ratio             : 16:9
    Frame rate                       : 25.000 fps
    Standard                         : PAL
    Color space                      : YUV
    Chroma subsampling               : 4:2:0
    Bit depth                        : 8 bits
    Scan type                        : Interlaced
    Scan order                       : Top Field First
    Bits/(Pixel*Frame)               : 0.251
    Stream size                      : 839 MiB (91%)
    Color primaries                  : BT.470-6 System B, BT.470-6 System G, BT.601-6 625, BT.1358 625, BT.1700 625 PAL, BT.1700 625 SECAM
    Transfer characteristics         : BT.470-6 System B, BT.470-6 System G
    Matrix coefficients              : BT.470-6 System B, BT.470-6 System G, BT.601-6 625, BT.1358 625, BT.1700 625 PAL, BT.1700 625 SECAM, IEC 61966-2-4 601

    Audio
    ID                               : 1504 (0x5E0)
    Menu ID                          : 15 (0xF)
    Format                           : MPEG Audio
    Format version                   : Version 1
    Format profile                   : Layer 2
    Mode                             : Joint stereo
    Codec ID                         : 4
    Duration                         : 45mn 3s
    Bit rate mode                    : Constant
    Bit rate                         : 128 Kbps
    Channel(s)                       : 2 channels
    Sampling rate                    : 48.0 KHz
    Compression mode                 : Lossy
    Delay relative to video          : -1s 510ms
    Stream size                      : 41.2 MiB (4%)
    Language                         : Polish

    Text
    ID                               : 1505 (0x5E1)-100
    Menu ID                          : 15 (0xF)
    Format                           : Teletext
    Language                         : Polish

    Menu
    ID                               : 1501 (0x5DD)
    Menu ID                          : 15 (0xF)
    Duration                         : 45mn 3s
    List                             : 1502 (0x5DE) (AVC) / 1504 (0x5E0) (MPEG Audio, Polish) / 1505 (0x5E1) ()
    Language                         :  / Polish


  • #5
    User removed account
    User removed account  
  • #6
    asdqwerty
    Level 21  
    Załączyłem info o nagraniu w poprzednim poście. Jakie mam ustawić w programie konwertującym: bitrate, fps?
  • #7
    User removed account
    User removed account  
  • #8
    asdqwerty
    Level 21  
    melenop wrote:
    asdqwerty wrote:
    Chciałbym konwertować do .avi

    Dlaczego .avi?


    Dlatego, że bez problemu mogę go odtworzyć na analogowej nagrywarce dvd. Lepszych jakościowo plików ta nagrywarka nie obsługuje. Poza tym od zawsze nagrywałem w tym formacie. Konwertuję za pomocą Format Factory. Póki co mi wystarczał. Chciałbym skonwertować te nagrania z ts do avi. Podczas odtwarzania plików .ts na komputerz, zacinają się oraz obraz jest lekko niewyraźny. Mam nadzieję, że uzasadniłem tok postępowania.
  • #9
    User removed account
    User removed account  
  • #10
    asdqwerty
    Level 21  
    Dziękuję za pomoc.