Elektroda.pl
Elektroda.pl
X
Proszę, dodaj wyjątek dla www.elektroda.pl do Adblock.
Dzięki temu, że oglądasz reklamy, wspierasz portal i użytkowników.

Denon DBT-1713UD - Blu-ray Denon DBD-1713UD zawiesza się podczas oglądania MKV

23 Maj 2014 00:47 2355 2
  • Poziom 2  
    Witam.
    Często oglądam filmy MKV z pendrive wcześniej oglądałem przez TV ale dźwięk wychodzący był Dolby Digital więc dokupiłem do zestawu kina domowego Denon DBD-1713UD by mieć dźwięk DTS-HD master i tu jest PROBLEM , podczas odważania filmu MKV po upływie kilku minut bluray się zacina do tego stopnia że nie można nic zrobić i trzeba go zresetować . Filmy nie są uszkodzone bo jak podłączę pendrive do TV czy na komputerze wszystko jest dobrze. Nie z wszystkimi mkv tak się dzieje wrzucę parametry dwóch filmów Pierwszy film się zacina drugi można oglądać bez żadnych problemów . Jak ktoś zna przyczynę lub wie jak zrobić żeby dało się to naprawić będę naprawdę wdzięczny .
    FILM 1
    47.Ronin.2013.Bluray.1080p.DTS-HD.x264-Grym.mkv
    Format : Matroska
    File size : 14.5 GiB
    Duration : 1h 58mn
    Overall bit rate : 17.5 Mbps
    Encoded date : UTC 2014-03-23 12:03:27
    Writing application : mkvmerge v6.8.0 ('Theme for Great Cities') 64bit built on Mar 2 2014 21:34:26
    Writing library : libebml v1.3.0 + libmatroska v1.4.1

    Video
    ID : 1
    Format : AVC
    Format/Info : Advanced Video Codec
    Format profile : High(malpa)L4.1
    Format settings, CABAC : Yes
    Format settings, ReFrames : 4 frames
    Format settings, GOP : M=4, N=24
    Codec ID : V_MPEG4/ISO/AVC
    Duration : 1h 58mn
    Bit rate mode : Variable
    Bit rate : 14.9 Mbps
    Maximum bit rate : 30.0 Mbps
    Width : 1 920 pixels
    Height : 1 080 pixels
    Display aspect ratio : 16:9
    Frame rate : 23.976 fps
    Color space : YUV
    Chroma subsampling : 4:2:0
    Bit depth : 8 bits
    Scan type : Progressive
    Bits/(Pixel*Frame) : 0.299
    Stream size : 12.3 GiB (85%)
    Language : English

    Audio
    ID : 2
    Format : DTS
    Format/Info : Digital Theater Systems
    Format profile : MA / Core
    Codec ID : A_DTS
    Duration : 1h 58mn
    Bit rate mode : Variable
    Bit rate : 2 299 Kbps / 1 510 Kbps
    Channel(s) : 6 channels
    Channel positions : Front: L C R, Side: L R, LFE
    Sampling rate : 48.0 KHz
    Bit depth : 24 bits
    Compression mode : Lossless / Lossy
    Language : English

    Film 2
    The.Legend.of.Hercules.mkv
    Format : Matroska
    File size : 12.7 GiB
    Duration : 1h 38mn
    Overall bit rate : 18.4 Mbps
    Encoded date : UTC 2014-04-02 16:10:31
    Writing application : MakeMKV v1.8.7 win(x64-release)
    Writing library : libmakemkv v1.8.7 (1.3.0/1.4.1) win(x64-release)

    Video
    ID : 1
    Format : AVC
    Format/Info : Advanced Video Codec
    Format profile : High(malpa)L4.1
    Format settings, CABAC : Yes
    Format settings, ReFrames : 4 frames
    Codec ID : V_MPEG4/ISO/AVC
    Duration : 1h 38mn
    Bit rate mode : Variable
    Bit rate : 16.1 Mbps
    Maximum bit rate : 22.0 Mbps
    Width : 1 920 pixels
    Height : 1 080 pixels
    Display aspect ratio : 16:9
    Frame rate : 23.976 fps
    Standard : NTSC
    Color space : YUV
    Chroma subsampling : 4:2:0
    Bit depth : 8 bits
    Scan type : Progressive
    Bits/(Pixel*Frame) : 0.325
    Stream size : 11.1 GiB (88%)
    Language : English
    Color primaries : BT.709-5, BT.1361, IEC 61966-2-4, SMPTE RP177
    Transfer characteristics : BT.709-5, BT.1361
    Matrix coefficients : BT.709-5, BT.1361, IEC 61966-2-4 709, SMPTE RP177

    Audio
    ID : 2
    Format : DTS
    Format/Info : Digital Theater Systems
    Format profile : MA / Core
    Codec ID : A_DTS
    Duration : 1h 38mn
    Bit rate mode : Variable
    Bit rate : 1 903 Kbps / 1 510 Kbps
    Channel(s) : 6 channels
    Channel positions : Front: L C R, Side: L R, LFE
    Sampling rate : 48.0 KHz
    Bit depth : 16 bits
    Compression mode : Lossless / Lossy
    Title : Lossless
    Language : English
  • Pomocny post
    Poziom 1  
    cyngiel-1987 Może pomogę (z opóźnieniem), filmy robione mkvmerge w wersji 4+, na nie których blu-rayach wariują, ja zawsze przepuszczam przez "MKVToolnix 3.0.0" i wtedy odtwarzają się bez problemu.
  • Poziom 2  
    Zrobiłem jak napisałeś i już wszystkie film śmigają. Szczerze mówiąc myślałem że to wada odtwarzacza i że nikt już nie odpowie Wielkie DZIĘKI za radę :)