Elektroda.pl
Elektroda.pl
X
Proszę, dodaj wyjątek www.elektroda.pl do Adblock.
Dzięki temu, że oglądasz reklamy, wspierasz portal i użytkowników.

Serwer DLNA - Czy da się wymusić streaming 1080p@24fps? Oraz wyłączenie napisów

rafmik 12 Lut 2017 02:04 1560 4
  • #1 12 Lut 2017 02:04
    rafmik
    Poziom 10  

    Dzień dobry :)

    Mam pytanie dotyczące streamingu z komputera na TV za pośrednictwem DLNA.

    Aktualnie korzystam z PS3 Media Server.
    Czy na tym serwerze (lub dowolnym innym) da się jakoś wymusić streaming obrazu na TV w rozdzielczości 1080p@24fps?
    Nic niestety nie widzę w ustawieniach, chyba, że może wymaga to jakiegoś zaawansowanego grzebania w ustawieniach?

    Czy może jest to zależne od samego pliku?

    Mam dla przykładu dwa pliki .mkv:

    1.

    Code:

    General
    Unique ID : 10406939014792605906402862146433372728 (0x7D44DB54F02266C782DCA9DEBA4D238)
    Complete name aaa.mkv
    Format : Matroska
    Format version : Version 4 / Version 2
    File size : 4.43 GiB
    Duration : 56mn 10s
    Overall bit rate : 11.3 Mbps
    Encoded date : UTC 2016-11-08 00:01:01
    Writing application : mkvmerge v9.3.1 ('Mask Machine') 64bit
    Writing library : libebml v1.3.4 + libmatroska v1.4.5

    Video
    ID : 1
    Format : AVC
    Format/Info : Advanced Video Codec
    Format profile : High(malpa)L4.1
    Format settings, CABAC : Yes
    Format settings, ReFrames : 4 frames
    Codec ID : V_MPEG4/ISO/AVC
    Duration : 56mn 10s
    Bit rate : 10.7 Mbps
    Width : 1 920 pixels
    Height : 960 pixels
    Display aspect ratio : 2.000
    Frame rate mode : Constant
    [b]Frame rate : 25.000 fps[/b]
    Color space : YUV
    Chroma subsampling : 4:2:0
    Bit depth : 8 bits
    Scan type : Progressive
    Bits/(Pixel*Frame) : 0.232
    Stream size : 4.19 GiB (95%)
    Writing library : x264 core 148 r2721+7 72d53ab / tmod 162ad1b X86_64
    Encoding settings : cabac=1 / ref=4 / deblock=1:-3:-3 / analyse=0x3:0x133 / me=umh / subme=11 / psy=1 / fade_compensate=0.00 / psy_rd=1.05:0.15 / mixed_ref=1 / me_range=36 / chroma_me=1 / trellis=2 / 8x8dct=1 / cqm=0 / deadzone=6,6 / fast_pskip=0 / chroma_qp_offset=-3 / threads=12 / lookahead_threads=3 / sliced_threads=0 / nr=0 / decimate=0 / interlaced=0 / bluray_compat=0 / constrained_intra=0 / fgo=0 / bframes=10 / b_pyramid=2 / b_adapt=2 / b_bias=0 / direct=3 / weightb=1 / open_gop=0 / weightp=2 / keyint=250 / keyint_min=25 / scenecut=40 / intra_refresh=0 / rc=crf / mbtree=0 / crf=17.0000 / qcomp=0.75 / qpmin=0:0:0 / qpmax=69:69:69 / qpstep=4 / ip_ratio=1.10 / pb_ratio=1.10 / aq=3:0.70 / aq-sensitivity=10.00 / aq-factor=1.00:1.00:1.00 / aq2=0 / aq3=0
    Language : English
    Default : Yes
    Forced : No

    Audio
    ID : 2
    Format : AC-3
    Format/Info : Audio Coding 3
    Mode extension : CM (complete main)




    Format settings, Endianness : Big
    Codec ID : A_AC3
    Duration : 56mn 10s
    Bit rate mode : Constant
    Bit rate : 384 Kbps
    Channel(s) : 6 channels
    Channel positions : Front: L C R, Side: L R, LFE
    Sampling rate : 48.0 KHz
    Compression mode : Lossy
    Stream size : 154 MiB (3%)
    Language : English
    Default : Yes
    Forced : No

    Text #1
    ID : 3
    Format : UTF-8
    Codec ID : S_TEXT/UTF8
    Codec ID/Info : UTF-8 Plain Text
    Title : English
    Language : English
    Default : No
    Forced : No

    Text #2
    ID : 4
    Format : UTF-8
    Codec ID : S_TEXT/UTF8
    Codec ID/Info : UTF-8 Plain Text
    Title : English (SDH)
    Language : English
    Default : No
    Forced : No

    Text #3
    ID : 5
    Format : UTF-8
    Codec ID : S_TEXT/UTF8
    Codec ID/Info : UTF-8 Plain Text
    Title : French
    Language : French
    Default : No
    Forced : No

    Text #4
    ID : 6
    Format : UTF-8
    Codec ID : S_TEXT/UTF8
    Codec ID/Info : UTF-8 Plain Text
    Title : German
    Language : German
    Default : No
    Forced : No

    Text #5
    ID : 7
    Format : UTF-8
    Codec ID : S_TEXT/UTF8
    Codec ID/Info : UTF-8 Plain Text
    Title : Italian
    Language : Italian
    Default : No
    Forced : No

    Text #6
    ID : 8
    Format : UTF-8
    Codec ID : S_TEXT/UTF8
    Codec ID/Info : UTF-8 Plain Text
    Title : Spanish
    Language : Spanish
    Default : No
    Forced : No




    2.

    Code:

    General
    Unique ID : 185807360198826168228055411308374922324 (0x8BC93225CF8E157A8D60847AB04A1454)
    Complete name :bbbb.mkv
    Format : Matroska
    Format version : Version 4 / Version 2
    File size : 3.60 GiB
    Duration : 1h 43mn
    Overall bit rate : 5 005 Kbps
    Movie name :
    Encoded date : UTC 2017-01-13 05:39:12
    Writing application : mkvmerge v9.6.0 ('Slave To Your Mind') 64bit
    Writing library : libebml v1.3.4 + libmatroska v1.4.5
    Attachements : cover_land.jpg / small_cover.jpg / small_cover_land.jpg / cover.jpg

    Video
    ID : 1
    Format : AVC
    Format/Info : Advanced Video Codec
    Format profile : High@L4
    Format settings, CABAC : Yes
    Format settings, ReFrames : 5 frames
    Codec ID : V_MPEG4/ISO/AVC
    Duration : 1h 43mn
    Bit rate : 4 522 Kbps
    Width : 1 920 pixels
    Height : 796 pixels
    Display aspect ratio : 2.40:1
    Frame rate mode : Constant
    [b]Frame rate : 24.000 fps[/b]
    Color space : YUV
    Chroma subsampling : 4:2:0
    Bit depth : 8 bits
    Scan type : Progressive
    Bits/(Pixel*Frame) : 0.123
    Stream size : 3.25 GiB (90%)
    Title :
    Language : English
    Default : Yes
    Forced : No
    Color range : Limited
    Color primaries : BT.709
    Transfer characteristics : BT.709
    Matrix coefficients : BT.709

    Audio
    ID : 2
    Format : AC-3
    Format/Info : Audio Coding 3
    Mode extension : CM (complete main)
    Format settings, Endianness : Big
    Codec ID : A_AC3
    Duration : 1h 43mn
    Bit rate mode : Constant
    Bit rate : 384 Kbps
    Channel(s) : 6 channels
    Channel positions : Front: L C R, Side: L R, LFE
    Sampling rate : 48.0 KHz
    Compression mode : Lossy
    Stream size : 283 MiB (8%)
    Title :
    Language : English
    Default : Yes
    Forced : No

    Text
    ID : 3
    Format : UTF-8
    Codec ID : S_TEXT/UTF8
    Codec ID/Info : UTF-8 Plain Text
    Language : English
    Default : Yes
    Forced : No

    Menu
    00:00:00.000 : en:1
    00:14:21.000 : en:2
    00:25:50.000 : en:3
    00:34:32.000 : en:4
    00:45:03.000 : en:5
    00:58:38.000 : en:6
    01:09:49.000 : en:7
    01:20:47.000 : en:8
    01:35:46.000 : en:9


    Jak to wygląda na przypadku tych dwóch powyższych plików? Plik "1" jest nagrany w 25fps, plik "2" jest nagrany w 24fps.
    W jakiej rozdzielczości i fps jest to przesyłane na TV? Ewentualnie jak to sprawdzić i ustawić?
    TV to Panasonic TX-50DS630e ze 120Hz matrycą - chciałbym wypróbować jaką jakość będzie miał obraz w 1080p/24fps, czyli teoretycznie "najbardziej realny", jak na BR i w kinie (filmy w większości są kręcone z prędkością 24 klatek/s.

    Da się to jakoś ustawić na serwerze DLNA?



    Dodatkowo zapytam:

    Te dwa przykładowe pliki mają w kontenerze .mkv napisy - czy da się jakoś ustawić w serwerze DLNA opcje - żeby nie przesyłało tych napisów? Tak żeby TV po prostu ich nie widział?

    0 4
  • #2 17 Lut 2017 21:16
    anmedia
    Poziom 39  

    rafmik napisał:
    Czy na tym serwerze (lub dowolnym innym) da się jakoś wymusić streaming obrazu na TV w rozdzielczości 1080p@24fps?

    Nie, telewizor dostosowuje swoje opcjie do zrodla z jakiego odbiera obraz. To nie komputer. Natomiast jesli serwer pozwolilby na taka mozliwosc, to inna sprawa, ale serwer DLNA to nic jak "ulepszone" UPnP - ogolnie to ujmujac. Jedynie Serwery Multimedialne ktore posiadaja moduly do podlaczenia bezposrednio z TV czy amplitunera moga posiadac tego typu opcje.

    0
  • #3 17 Lut 2017 22:39
    rafmik
    Poziom 10  

    Czyli np zakup TV Boxa na Androidzie, zaznaczenie na sztywno w ustawieniach puszczania sygnału 1080p/24fps oraz korzystania z DLNA za pośrednictwem TV Box rozwiąże sprawę?

    0
  • #4 18 Lut 2017 13:12
    anmedia
    Poziom 39  

    Tak powinno byc. Ale musisz miec na uwadze ze zmiana takich parametrow, nie zawsze idzie w parze z jakoscia. Co chce przez to powiedziec, wymuszanie parametrow innych od oryginalu moze skutkowac przedewszystkim pogorszeniem parametrow i jakosci sygnalu odbieranego. A jak latwo to sprawadzic? Jesli masz komputer z dobra karta graficzna ktora ma mozliwosci zmiany parametrow i rozdzielczosci a takze szybkosci fps, zauwazysz ze kazda zmiana ma wplyw na plynnosc odtwarzanego materialu.
    Tak ze kazdy produkt powinnienes samodzielnie sprawdzic

    0
  • #5 27 Lut 2017 20:01
    rafmik
    Poziom 10  

    Ok, co do rozwiązania problemu z napisami - wyłączyłem po prostu streaming napisów na serwerze DLNA.
    A co do wymuszenia 24fps to zmieniłem serwer DLNA ;) Na Kodi ta funcka działa bez problemu :)
    Okazało się, ze PS3 Media Server na domyślnych ustawieniach dodatkowo transkodował plik :(

    0