Elektroda.pl
Elektroda.pl
X
Proszę, dodaj wyjątek dla www.elektroda.pl do Adblock.
Dzięki temu, że oglądasz reklamy, wspierasz portal i użytkowników.

Przyśpieszyć renderowanie-wymiana procesora.

23 Lip 2017 14:44 624 22
  • Poziom 26  
    Płyta Gigabyte 6A-B75M-D3V(rev.1.1), RAM 2x8GB (dual) Corsair, W7/64 , Bequiet-350W, Intel Core i3-3220, CPU-3,3GHz.
    Chciałbym zwiększyć prędkość renderowania nagranych filmów szkoleniowych przy użyciu Camtasia 8, obecnie film o poj. 1.5Gb renderuje się prawie 4 godziny. Czy wymiana procesora spowoduje radykalne zmniejszenie tego czasu, jeżeli tak, który polecacie:
    http://www.gigabyte.pl/products/page/mb/ga-b75m-d3vrev_11#support-cpu

    Nie używam komputera do gier, do tej pory wystarczał mi w konfiguracji jw., może
    trzeba poza procesorem dołożyć też RAM-u? albo inne zmiany?
  • Poziom 17  
    Cytat:
    poza procesorem dołożyć też RAM-u?

    Nie ma gdzie bo masz 2 banki pamięci obsadzone na max, gdyż ta płyta przyjmie tylko 16 GB.

    Wymiana procesora. Ten program niezbyt chętnie obsługuje więcej niż 2 rdzenie. Tak więc szybszy procesor z większą ilością Cache (6MB i5/i7 vs. 3MB i3) i MHz da pewną poprawę, ale nie radykalną.
  • Pomocny dla użytkowników
    Po pierwsze sprawdź, która dokładnie wersję Camtasia 8 posiadasz. Jeśli nie najnowszą dostępną to powinieneś zaktualizować do 8.6.0 Po drugie podczas renderingu otwórz Menedżera zadań i sprawdź obciążenie procesora. Zamieść zrzut ekranu z wykresem obciążenia. Sprawdź też czy masz włączone wsparcie renderowania przez GPU w Camtasi.
  • Poziom 26  
    necavi napisał:
    Tak więc szybszy procesor z większą ilością Cache (6MB i5/i7 vs. 3MB i3) i MHz da pewną poprawę, ale nie radykalną.

    ok., dzięki.
    speedy9 napisał:
    która dokładnie wersję Camtasia 8 posiadasz

    8.6
    speedy9 napisał:
    Zamieść zrzut ekranu z wykresem obciążenia

    Przyśpieszyć renderowanie-wymiana procesora.
    speedy9 napisał:
    Sprawdź też czy masz włączone wsparcie renderowania przez GPU w Camtasi.

    Która to zakładka?
  • Pomocny dla użytkowników
    MM2X napisał:
    Która to zakładka?

    Tools->Options, zakładka Program

    Przy takim obciążeniu procesora, to jakoś wątpię by wymiana na i5 czy i7 wiele dała. Można by mieć taką nadzieję jakby stałe obciążenie obecnego procesora podczas renderingu wynosiło 100%, a w najgorszym przypadku 50% (czyli jakby obciążone były tylko fizyczne rdzenie bez wykorzystania HyperThreadingu).
  • Poziom 26  
    speedy9 napisał:
    Tools->Options, zakładka Program

    Przyśpieszyć renderowanie-wymiana procesora.
    Przepraszam ale nie wiem co zaznaczyć.
  • Poziom 26  
    speedy9 napisał:
    Masz już zaznaczone "Use GPU acceleration...".

    ok., dzięki.
    enhanced napisał:
    A odznaczenie tej akceleracji GPU coś zmienia?

    Nie zmienia, dalej wolno.
    enhanced napisał:
    Oraz jakim kodekiem obrabiasz obraz podczas tej konwersji?

    Nagrywam projekt "capture-1" potem "produce & share", i na koniec "mp4 smart player"

    Dodano po 4 [minuty]:

    enhanced napisał:
    Rozumiem że dodajesz coś do wcześniej nagranego obrazu tak?

    Nie dodaję , w projekcie "capture-1" są dwa strumienie video i fonia, tylko to renderuję.
  • Poziom 37  
    A może po prostu dysk się nie wyrabia ?

    Z czego kolega odczytuje materiały bazowe i na co zapisuje ?

    Jak ma kolega co najmniej dwa dyski twarde to można spróbować wczytywać materiał z jednego a zapisywać na drugi.
    Inną drogą jest po prostu dysk SSD dedykowany obróbce materiałów filmowych.

    HDD ma całkiem niezłą prędkość sekwencyjną (duże pliki szybko idą) ale słabo radzi sobie z małymi plikami.
    SSD radzi sobie znakomicie z obydwoma typami danych.

    Warto by sprawdzić jak wygląda wykres pracy dysku w monitorze zasobów. Typowy dysk HDD przy odczycie sekwencyjnym wyciąga w okolicach 100MB/s (w porywach 130-140MB/s).
  • Poziom 26  
    W ogóle to robię i tak podwójną robotę, bo chcę ściągać nagrane filmy szkoleniowe (opisywałem we wcześniejszych postach) ale niestety rozszerzenie download zarówno Chrome , FF i IE nie obsługują tego już, najwyżej można nagrać samo video.

    W związku z tym, włączam szkolenie, nagrywam projekt Camtasią a potem trzeba zgrac video z fonią.

    Dodano po 7 [minuty]:

    MM2X napisał:
    Z czego kolega odczytuje materiały bazowe i na co zapisuje ?

    Nie z YT, tylko strony twórcy webinaru, zapisuję na ssd, tj. na pulpicie projekt capture-1 a po renderownaiu na dysk talerzowy, drugi w komputerze.

    pawelr98 napisał:
    Jak ma kolega co najmniej dwa dyski twarde to można spróbować wczytywać materiał z jednego a zapisywać na drugi.

    Tak właśnie jest, jw.

    pawelr98 napisał:
    Warto by sprawdzić jak wygląda wykres pracy dysku w monitorze zasobów

    Przyśpieszyć renderowanie-wymiana procesora.
  • Poziom 26  
    pawelr98 napisał:
    Chodzi o wykres pracy dysku podczas renderowania.

    Przyśpieszyć renderowanie-wymiana procesora.
  • Poziom 41  
    A to teraz bardziej rozumiem co robisz. Czyli kodujesz obraz na taki ze swoim kodekiem żeby był ogólnie odtwarzalny tak?

    Przydałby się testowy plik a raczej namiar na konto żeby spróbować ściągnąć.

    Co do camtasii skoro nim zgrywasz całość do jego formatu to przy wyborze finalnego pliku wybierz custom i jak możesz (ściągnij sobie x264 jak możesz takiego formatu używać) i tam napewno będzie możliwość wykorzystania więcej niż 2 rdzenie. To nie wina camtasii tylko kodeka którym konwersujesz. A jak nie to zmieńić grabber z camtasii na coś innego - OBS może? MSI AFterburner też pewnie by dał rade.

    Choć najlpiej by było ze strony źródłowej zgrać.

    edit
    Zgrabnałem jeden plikuś w 1080p idmanem.
    Spoiler:
    Code:
    E:\ssssssssssssssssssssss\Video - 44 Jak Handlowa na Rynku Forex bez Wskazan Wolumenu - HTTP-__PL.JPIMIFX.COM.MP4
    
       General
          Complete name : E:\ssssssssssssssssssssss\Video - 44 Jak Handlowa na Rynku Forex bez Wskazan Wolumenu - HTTP-__PL.JPIMIFX.COM.MP4
          Format : MPEG-4
          Format profile : Base Media / Version 2
          Codec ID : mp42 (mp42/mp41/isom/avc1)
          File size : 332 MiB
          Duration : 1 h 37 min
          Overall bit rate mode : Variable
          Overall bit rate : 476 kb/s
          Encoded date : UTC 2017-07-08 13:26:17
          Tagged date : UTC 2017-07-08 13:26:17
       Video #1
          ID : 1
          Format : AVC
          Format/Info : Advanced Video Codec
          Format profile : High@L4
          Format settings, CABAC : Yes
          Format settings, ReFrames : 4 frames
          Codec ID : avc1
          Codec ID/Info : Advanced Video Coding
          Duration : 1 h 37 min
          Bit rate : 430 kb/s
          Width : 1 920 pixels
          Height : 1 080 pixels
          Display aspect ratio : 16:9
          Frame rate mode : Constant
          Frame rate : 15.598 FPS
          Color space : YUV
          Chroma subsampling : 4:2:0
          Bit depth : 8 bits
          Scan type : Progressive
          Bits/(Pixel*Frame) : 0.013
          Stream size : 300 MiB (90%)
          Writing library : x264 core 150 r10 df79067
          Encoding settings : cabac=1 / ref=4 / deblock=1:0:0 / analyse=0x3:0x113 / me=hex / subme=8 / psy=1 / psy_rd=1.00:0.00 / mixed_ref=1 / me_range=16 / chroma_me=1 / trellis=2 / 8x8dct=1 / cqm=0 / deadzone=21,11 / fast_pskip=1 / chroma_qp_offset=-2 / threads=34 / lookahead_threads=5 / sliced_threads=0 / nr=0 / decimate=1 / interlaced=0 / bluray_compat=0 / stitchable=1 / constrained_intra=0 / bframes=3 / b_pyramid=2 / b_adapt=1 / b_bias=0 / direct=3 / weightb=1 / open_gop=0 / weightp=2 / keyint=infinite / keyint_min=15 / scenecut=40 / intra_refresh=0 / rc_lookahead=50 / rc=crf / mbtree=1 / crf=20.0 / qcomp=0.60 / qpmin=5 / qpmax=69 / qpstep=4 / vbv_maxrate=5500 / vbv_bufsize=15000 / crf_max=0.0 / nal_hrd=none / filler=0 / ip_ratio=1.40 / aq=1:1.00
          Encoded date : UTC 2017-07-08 13:26:17
          Tagged date : UTC 2017-07-08 13:26:17
          Color range : Limited
          Color primaries : BT.709
          Transfer characteristics : BT.709
          Matrix coefficients : BT.709
       Audio #2
          ID : 2
          Format : AAC
          Format/Info : Advanced Audio Codec
          Format profile : LC
          Codec ID : 40
          Duration : 1 h 37 min
          Bit rate mode : Variable
          Bit rate : 42.7 kb/s
          Channel(s) : 2 channels
          Channel(s)_Original : 1 channel
          Channel positions : Front: C
          Sampling rate : 48.0 kHz
          Frame rate : 46.875 FPS (1024 spf)
          Compression mode : Lossy
          Stream size : 29.8 MiB (9%)
          Encoded date : UTC 2017-07-08 13:26:17
          Tagged date : UTC 2017-07-08 13:26:17

    Rozumiem że takowego pliku już nie musisz męczyć?
  • Poziom 26  
    enhanced napisał:
    Rozumiem że takowego pliku już nie musisz męczyć?

    Już nie :)
  • Poziom 26  
    enhanced napisał:
    Doszedłeś jak ściągać?

    Tak jak podałeś ale nie na Chrome, ani FF tylko IE, lepszy rydz niż nic ;)
  • Poziom 26  
    enhanced napisał:
    Dokładnie. IDMan daje radę.

    A próbowałeś go użyć w FF albo Chrome?
  • Poziom 26  
    Chodzi mi o to, ze w Chrome pasek "ściągnij ten plik" otwiera się tylko nad obrazem oglądanego filmu i nie ma możliwości wyboru, natomiast w IE otwiera się dodatkowy pasek w górnym prawy rogu i tam wymieram 1080, 720, 480 itd.
    A w FF w ogóle IDM nie przechwytuje filmu i nie ma żadnego paska :(
  • Poziom 21  
    Do ściągania video w FF lub Chrome proponuje rozszerzenie Download VideoHelper
  • Poziom 26  
    marconii2002 napisał:
    Do ściągania video w FF lub Chrome proponuje rozszerzenie Download VideoHelper

    Wcześniej był niezawodny w FF także ale teraz ma ograniczenia, trzeba dokupić jakiś plugin, czy wtyczkę...