Elektroda.pl
Elektroda.pl
X
Proszę, dodaj wyjątek dla www.elektroda.pl do Adblock.
Dzięki temu, że oglądasz reklamy, wspierasz portal i użytkowników.

Pobrany film tnie się, w przeglądarce odtwarzany jest poprawnie

18 Lis 2019 20:45 408 21
  • Poziom 18  
    Natknąłem się na dziwny problem. Chcialem pobrać film z VOD (stary polski, po rekonstrukcji cyfrowej). Pobrałem za pomocą wtyczki Video Download Helper (1280x720) i okazało się, że film ten się tnie (haczy), zarówno w kilku różnych odtwarzaczach na kompie, jak i w stacjonarnym. Pobrałem w mniejszej rozdzielczości ale nie pomogło. Dziwne jest to, że podczas oglądania online w przegladarce (FF i Chrome) film ten jest odtwarzany płynnie. Spróbowąłem otworzyc go w Avidemux i pojawił sie komunikat "Ten film zawiera klatki B, ale znaczniki czasu prezentacji (PTS) są nieobecne albo rosną monotonicznie. Avidemux może zrekonstruować poprawne PTS przez dekodowanie całego wideo. To może zajac duzo czasu. Kontynuować?" Kliknałem "Tak" i rzeczywiście program coś tworzył przez ok. 10 minut. Jednak po zapisaniu go (z opcjami kopiuj) nic się nie zmieniło. O co tu moze chodzić? Da się ściągnąc film poprawnie albo naprawić pobrany plik?
  • Poziom 18  
    enhanced napisał:
    Może wstaw dane techniczne z mediainfo z tego pliku?

    Na jakim sprzęcie odtwrzasz? CPU i GPU jakie?


    General
    Complete name XXX.mp4
    Format : MPEG-4
    Format profile : Base Media
    Codec ID : isom (isom/iso2/avc1/mp41)
    File size : 2.31 GiB
    Duration : 1 h 1 min
    Overall bit rate mode : Variable
    Overall bit rate : 5 419 kb/s

    Video
    ID : 1
    Format : AVC
    Format/Info : Advanced Video Codec
    Format profile : High(malpa)L3.1
    Format settings : CABAC / 4 Ref Frames
    Format settings, CABAC : Yes
    Format settings, Reference frames : 4 frames
    Codec ID : avc1
    Codec ID/Info : Advanced Video Coding
    Duration : 1 h 1 min
    Source duration : 1 h 1 min
    Bit rate : 5 420 kb/s
    Width : 1 280 pixels
    Height : 720 pixels
    Display aspect ratio : 16:9
    Frame rate mode : Variable
    Frame rate : 25.000 FPS
    Minimum frame rate : 6.250 FPS
    Maximum frame rate : 100.000 FPS
    Color space : YUV
    Chroma subsampling : 4:2:0
    Bit depth : 8 bits
    Scan type : Progressive
    Bits/(Pixel*Frame) : 0.235
    Stream size : 2.23 GiB (97%)
    Source stream size : 2.23 GiB (97%)
    Writing library : x264 core 129 r2245 bc13772
    Encoding settings : cabac=1 / ref=3 / deblock=1:0:0 / analyse=0x3:0x113 / me=hex / subme=7 / psy=1 / psy_rd=1.00:0.00 / mixed_ref=1 / me_range=16 / chroma_me=1 / trellis=1 / 8x8dct=1 / cqm=0 / deadzone=21,11 / fast_pskip=1 / chroma_qp_offset=-2 / threads=34 / lookahead_threads=5 / sliced_threads=0 / nr=0 / decimate=1 / interlaced=0 / bluray_compat=0 / constrained_intra=0 / bframes=3 / b_pyramid=2 / b_adapt=1 / b_bias=0 / direct=1 / weightb=1 / open_gop=0 / weightp=2 / keyint=100 / keyint_min=51 / scenecut=0 / intra_refresh=0 / rc_lookahead=40 / rc=abr / mbtree=1 / bitrate=5420 / ratetol=1.0 / qcomp=0.60 / qpmin=0 / qpmax=27 / qpstep=4 / vbv_maxrate=7000 / vbv_bufsize=7000 / nal_hrd=none / ip_ratio=1.40 / aq=1:1.00
    Color range : Full
    mdhd_Duration : 3665320
    Codec configuration box : avcC

    Audio
    ID : 2
    Format : AAC LC
    Format/Info : Advanced Audio Codec Low Complexity
    Codec ID : mp4a-40-2
    Duration : 1 h 1 min
    Source duration : 1 h 1 min
    Bit rate mode : Variable
    Bit rate : 180 kb/s
    Maximum bit rate : 225 kb/s
    Channel(s) : 2 channels
    Channel layout : L R
    Sampling rate : 44.1 kHz
    Frame rate : 43.066 FPS (1024 SPF)
    Compression mode : Lossy
    Stream size : 78.4 MiB (3%)
    Source stream size : 78.4 MiB (3%)
    mdhd_Duration : 3665363

    Komp to Dell Optiplex 7010. Win10 64, Procek Intel 4x3,2, 8GB RAM, grafika zintegrowana. Ale przecież pisałem że film się tnie tez na odtwarzaczu stacjonarnym (BluRay LG)
  • Poziom 18  
    enhanced napisał:
    Wszystko OK ale te pozycje
    Minimum frame rate : 6.250 FPS
    Maximum frame rate : 100.000 FPS
    dość dziwne jak na film.

    non stop się tnie czy tylko czasami?

    Czasami. Spróbowałem też przerobić go Avidemuxem - dekodowanie i kodowanie mp4 -wyszło dużo lepiej, ale i tak sa drobne zacięcia
  • Poziom 18  
    enhanced napisał:
    Odpal sobie OSD i patrz czy podczas spadków nie masz właśnie tych dziwnie niskich FPSów. TAB w oknie Daum potplayera. Z takim niskim FPSem to płynne odtwarzanie być nie może.

    Podaje 25 fps, jednak jest sporo zgubionych klatek
  • Poziom 18  
    enhanced napisał:
    Możesz wstawić fragment tego filmu?
    Podziel https://mkvtoolnix.download/ np po 1minute lub 100MB lub mniej w zależności jak pasuje.

    Już nie trzeba. Znalazłem w necie inny sposób na pobieranie i film odtwarza się prawidłowo (Pot Player nie sygnalizuje zgubionych klatek)
  • Poziom 18  
    enhanced napisał:
    Możesz wstawić fragment tego filmu?
    Podziel https://mkvtoolnix.download/ np po 1minute lub 100MB lub mniej w zależności jak pasuje.

    Następny film - własnie pojawił sie w necie
    https://www.youtube.com/watch?v=J68wwm3_DUE&f...dAfJksnqmicf4vd5UZEyc4mHF1oG_7HUsjm4QQbdnjz-M
    Tu też są skokowe ruchu - samochody i tramwaje. Występuje to już w przegladarce. Jak to naprawić? W telewizorach są technologie poprawy płynnosci ruchu, szukałem w Google ale nie znalazłem odpowiednika w programach do edycji
  • Poziom 18  
    enhanced napisał:
    W której minucie się to tnie u ciebiec bo początkowe tramwaje się nie zacinają u mnie. Może to nie chodzi ekstremalnie idealnie ale to źródło pewnie takie.

    np. od 2'37''. Najpierw przejeżdża Skoda 1000 i też ma wg mnie nieco skokowe ruchy
  • Poziom 18  
    enhanced napisał:
    To coś dziwnego raczej u ciebie.

    SPrawdź https://daumpotplayer.com/download/ otwierając link do filmu na YT (jak masz skopiowany to w oknie programu dziabnij CTRL+V) będziesz miał w prawym dolnym rogu do wyboru kodeki i jakość.

    Puściłem to na odtwarzaczu stacjonarnym i tak samo
    Może mam za wysokie wymaganie?
  • Poziom 29  
    Jak na film z 1979 roku jest on bardzo dobrej jakości - to raczej nie VHS. U mnie też nic nie tnie i odtwarza się płynnie.