Elektroda.pl
Elektroda.pl
X

Search our partners

Find the latest content on electronic components. Datasheets.com
Elektroda.pl
Please add exception to AdBlock for elektroda.pl.
If you watch the ads, you support portal and users.

Samsung Q60R problem z kodekami

martin.dziedzic 21 Dec 2019 09:05 513 4
  • #1
    martin.dziedzic
    Level 4  
    Witam. Mam problem z qe65q60ratxxh. Część filmów w 4k, z pendrive działa bez zarzutu, a cześci nie da się obejrzeć bo obraz rwie się - jak by odtwarzany materiał był uszkodzony... No i najważniejsze - na kolegi Panasonicu wszystko bez zarzutu. Nie ma nowszej aktualizacji oprogramowania... czy ma ktoś wyżej wspomniany model?? Albo zna taki przypadek?
  • #2
    MARCIN.SLASK
    Home appliances specialist
    Daj parametry obu filmów (ten co działa oraz ten co źle jest odtwarzany) - np. z MediaInfo.
  • #3
    martin.dziedzic
    Level 4  
    ok, chwilę to potrwa zanim się ściągnie.

    Dodano po 7 [godziny] 39 [minuty]:

    OK pierwszy nie działa:

    General
    Unique ID : 212614941014219637935937236035310686892 (0x9FF425ED4FD40C1AB111569F58BF92AC)
    Complete name : C:\= DL =\= TORRENT =\Matrix Trylogia 4K UltraHD Blu-ray Lektor\The.Matrix.1999.MULTi.2160p.BluRay.Remux.UHD.HEVC.TrueHD.7.1-BETON.mkv
    Format : Matroska
    Format version : Version 2
    File size : 52.1 GiB
    Duration : 2 h 16 min
    Overall bit rate mode : Variable
    Overall bit rate : 54.7 Mb/s
    Movie name : The.Matrix.1999.MULTi.2160p.BluRay.Remux.UHD.HEVC.TrueHD.7.1-BETON
    Encoded date : UTC 2019-09-28 23:35:27
    Writing application : DVDFab 11.0.1.0
    Writing library : libebml v1.3.4 + libmatroska v1.4.5

    Video #1
    ID : 1
    Format : HEVC
    Format/Info : High Efficiency Video Coding
    Format profile : Main 10(malpa)L5.1@High
    HDR format : SMPTE ST 2086, HDR10 compatible
    Codec ID : V_MPEGH/ISO/HEVC
    Duration : 2 h 16 min
    Bit rate : 48.8 Mb/s
    Width : 3 840 pixels
    Height : 2 160 pixels
    Display aspect ratio : 16:9
    Frame rate mode : Constant
    Frame rate : 23.976 (24000/1001) FPS
    Color space : YUV
    Chroma subsampling : 4:2:0 (Type 2)
    Bit depth : 10 bits
    Bits/(Pixel*Frame) : 0.246
    Stream size : 46.5 GiB (89%)
    Default : Yes
    Forced : No
    Color range : Limited
    Color primaries : BT.2020
    Transfer characteristics : PQ
    Matrix coefficients : BT.2020 non-constant
    Mastering display color primar : BT.2020
    Mastering display luminance : min: 0.0020 cd/m2, max: 1000 cd/m2
    Maximum Content Light Level : 992 cd/m2
    Maximum Frame-Average Light Le : 518 cd/m2

    Video #2
    ID : 2
    Format : HEVC
    Format/Info : High Efficiency Video Coding
    Format profile : Main 10(malpa)L5.1@High
    HDR format : SMPTE ST 2086, HDR10 compatible
    Codec ID : V_MPEGH/ISO/HEVC
    Duration : 2 h 16 min
    Bit rate : 64.9 kb/s
    Width : 1 920 pixels
    Height : 1 080 pixels
    Display aspect ratio : 16:9
    Frame rate mode : Constant
    Frame rate : 23.976 (24000/1001) FPS
    Color space : YUV
    Chroma subsampling : 4:2:0 (Type 2)
    Bit depth : 10 bits
    Bits/(Pixel*Frame) : 0.001
    Stream size : 63.2 MiB (0%)
    Default : No
    Forced : Yes
    Color range : Limited
    Color primaries : BT.2020
    Transfer characteristics : PQ
    Matrix coefficients : BT.2020 non-constant
    Mastering display color primar : BT.2020
    Mastering display luminance : min: 0.0020 cd/m2, max: 1000 cd/m2

    Audio #1
    ID : 3
    Format : MLP FBA 16-ch
    Format/Info : Meridian Lossless Packing FBA with 16-channel presentation
    Commercial name : Dolby TrueHD with Dolby Atmos
    Codec ID : A_TRUEHD
    Duration : 2 h 16 min
    Bit rate mode : Variable
    Bit rate : 4 420 kb/s
    Maximum bit rate : 7 794 kb/s
    Channel(s) : 8 channels
    Channel layout : L R C LFE Ls Rs Lb Rb
    Sampling rate : 48.0 kHz
    Frame rate : 1 200.000 FPS (40 SPF)
    Compression mode : Lossless
    Stream size : 4.21 GiB (8%)
    Language : English
    Default : Yes
    Forced : No
    Number of dynamic objects : 11
    Bed channel count : 1 channel
    Bed channel configuration : LFE

    Audio #2
    ID : 4
    Format : AC-3
    Format/Info : Audio Coding 3
    Commercial name : Dolby Digital
    Codec ID : A_AC3
    Duration : 2 h 16 min
    Bit rate mode : Constant
    Bit rate : 640 kb/s
    Channel(s) : 6 channels
    Channel layout : L R C LFE Ls Rs
    Sampling rate : 48.0 kHz
    Frame rate : 31.250 FPS (1536 SPF)
    Bit depth : 16 bits
    Compression mode : Lossy
    Stream size : 624 MiB (1%)
    Language : English
    Service kind : Complete Main
    Default : No
    Forced : No

    Audio #3
    ID : 5
    Format : AC-3
    Format/Info : Audio Coding 3
    Commercial name : Dolby Digital
    Codec ID : A_AC3
    Duration : 2 h 16 min
    Bit rate mode : Constant
    Bit rate : 640 kb/s
    Channel(s) : 6 channels
    Channel layout : L R C LFE Ls Rs
    Sampling rate : 48.0 kHz
    Frame rate : 31.250 FPS (1536 SPF)
    Bit depth : 16 bits
    Compression mode : Lossy
    Stream size : 624 MiB (1%)
    Language : Polish
    Service kind : Complete Main
    Default : No
    Forced : No

    Text #1
    ID : 6
    Format : PGS
    Codec ID : S_HDMV/PGS
    Codec ID/Info : Picture based subtitle format used on BDs/HD-DVDs
    Duration : 2 h 15 min
    Bit rate : 22.6 kb/s
    Count of elements : 2746
    Stream size : 21.9 MiB (0%)
    Language : English
    Default : No
    Forced : No

    Text #2
    ID : 7
    Format : PGS
    Codec ID : S_HDMV/PGS
    Codec ID/Info : Picture based subtitle format used on BDs/HD-DVDs
    Duration : 2 h 15 min
    Bit rate : 17.4 kb/s
    Count of elements : 2770
    Stream size : 16.9 MiB (0%)
    Language : Polish
    Default : No
    Forced : No

    Menu
    00:00:00.000 : en:(01)00:00:00:000
    00:03:25.788 : en:(02)00:03:25:788
    00:06:35.645 : en:(03)00:06:35:645
    00:09:42.665 : en:(04)00:09:42:665
    00:11:58.300 : en:(05)00:11:58:300
    00:16:47.423 : en:(06)00:16:47:423
    00:21:33.542 : en:(07)00:21:33:542
    00:25:08.590 : en:(08)00:25:08:590
    00:28:51.146 : en:(09)00:28:51:146
    00:32:25.193 : en:(10)00:32:25:193
    00:35:21.869 : en:(11)00:35:21:869
    00:38:40.901 : en:(12)00:38:40:901
    00:44:22.576 : en:(13)00:44:22:576
    00:46:33.540 : en:(14)00:46:33:540
    00:48:57.851 : en:(15)00:48:57:851
    00:53:31.291 : en:(16)00:53:31:291
    00:56:32.138 : en:(17)00:56:32:138
    00:59:01.287 : en:(18)00:59:01:287
    01:01:08.581 : en:(19)01:01:08:581
    01:05:16.495 : en:(20)01:05:16:495
    01:07:46.812 : en:(21)01:07:46:812
    01:12:33.432 : en:(22)01:12:33:432
    01:17:49.581 : en:(23)01:17:49:581
    01:21:03.108 : en:(24)01:21:03:108
    01:25:05.350 : en:(25)01:25:05:350
    01:29:45.129 : en:(26)01:29:45:129
    01:31:27.565 : en:(27)01:31:27:565
    01:37:25.256 : en:(28)01:37:25:256
    01:41:04.975 : en:(29)01:41:04:975
    01:44:20.337 : en:(30)01:44:20:337
    01:47:00.497 : en:(31)01:47:00:497
    01:50:18.528 : en:(32)01:50:18:528
    01:52:56.686 : en:(33)01:52:56:686
    01:56:36.906 : en:(34)01:56:36:906
    01:58:49.372 : en:(35)01:58:49:372
    02:02:27.423 : en:(36)02:02:27:423
    02:05:41.784 : en:(37)02:05:41:784
    02:08:46.802 : en:(38)02:08:46:802
    02:16:18.420 : en:(39)02:16:18:420

    Dodano po 1 [minuty]:

    a ten działa:

    General
    Unique ID : 79189546847661870154299871843326037771 (0x3B935A19C3BDA0A33904F7625E7F0F0B)
    Complete name : G:\The Matrix Revolutions 2003.UHD.BluRay.2160p.x265.HDR.Atmos.7.1.[En+Hi]-DTOne\The Matrix Revolutions 2003.UHD.BluRay.2160p.x265.HDR.Atmos.7.1.[En+Hi]-DTOne.mkv
    Format : Matroska
    Format version : Version 4
    File size : 20.3 GiB
    Duration : 2 h 9 min
    Overall bit rate mode : Variable
    Overall bit rate : 22.5 Mb/s
    Encoded date : UTC 2019-01-22 18:24:53
    Writing application : mkvmerge v28.2.0 ('The Awakening') 64-bit
    Writing library : libebml v1.3.6 + libmatroska v1.4.9

    Video
    ID : 1
    Format : HEVC
    Format/Info : High Efficiency Video Coding
    Format profile : Main 10(malpa)L5.1@High
    HDR format : SMPTE ST 2086, HDR10 compatible
    Codec ID : V_MPEGH/ISO/HEVC
    Duration : 2 h 9 min
    Bit rate : 17.6 Mb/s
    Width : 3 840 pixels
    Height : 1 600 pixels
    Display aspect ratio : 2.40:1
    Frame rate mode : Constant
    Frame rate : 23.976 (24000/1001) FPS
    Color space : YUV
    Chroma subsampling : 4:2:0
    Bit depth : 10 bits
    Bits/(Pixel*Frame) : 0.120
    Stream size : 15.9 GiB (78%)
    Writing library : x265 2.8+4-g0ad419482+18:[Windows][GCC 7.1.0][64 bit] Yuuki 10bit
    Encoding settings : rc=crf / crf=19.5000 / qcomp=0.70 / qpstep=4 / vbv-maxrate=160000 / vbv-bufsize=160000 / vbv-init=0.9 / crf-max=0.0 / crf-min=0.0 / aq-mode=3 / aq-strength=0.90 / cbqpoffs=-3 / crqpoffs=-3 / ipratio=1.40 / pbratio=1.20 / psy-rd=2.00 / psy-rdoq=5.00 / deblock=-1:-1 / ref=5 / bframes=9 / b-adapt=2 / bframe-bias=0 / b-pyramid / b-intra / weightp / weightb / min-keyint=23 / max-keyint=300 / rc-lookahead=40 / gop-lookahead=0 / scenecut=40 / radl=0 / max-cu-size=32 / min-cu-size=8 / me=3 / subme=4 / merange=25 / rdoq-level=2 / rd=4 / rdpenalty=1 / ----- / cutree / no-sao / no-rect / no-amp / no-open-gop / wpp / no-pmode / no-pme / no-psnr / no-ssim / nr-intra=0 / nr-inter=0 / no-constrained-intra / no-strong-intra-smoothing / max-tu-size=32 / tu-inter-depth=2 / tu-intra-depth=2 / limit-tu=4 / qg-size=32 / qpmax=69 / qpmin=0 / ----- / cpuid=1111039 / frame-threads=5 / numa-pools=84,- / log-level=2 / input-csp=1 / input-res=3840x1600 / interlace=0 / level-idc=0 / high-tier=1 / uhd-bd=0 / no-allow-non-conformance / no-repeat-headers / no-aud / hrd / info / hash=0 / no-temporal-layers / lookahead-slices=4 / no-intra-refresh / dynamic-rd=0.00 / no-ssim-rd / signhide / no-tskip / max-merge=3 / limit-refs=2 / limit-modes / temporal-mvp / no-analyze-src-pics / no-sao-non-deblock / no-early-skip / no-rskip / no-fast-intra / no-tskip-fast / no-cu-lossless / no-splitrd-skip / no-rd-refine / no-lossless / zone-count=0 / no-strict-cbr / no-rc-grain / no-const-vbv / sar=0 / overscan=0 / videoformat=5 / range=0 / colorprim=9 / transfer=16 / colormatrix=9 / chromaloc=0 / display-window=0 / master-display=G(13250,34500)B(7500,3000)R(34000,16000)WP(15635,16450)L(10000000,1) / max-cll=996,249 / min-luma=0 / max-luma=1023 / log2-max-poc-lsb=8 / vui-timing-info / vui-hrd-info / slices=1 / no-opt-qp-pps / no-opt-ref-list-length-pps / no-multi-pass-opt-rps / scenecut-bias=0.05 / no-opt-cu-delta-qp / no-aq-motion / hdr / hdr-opt / no-dhdr10-opt / no-idr-recovery-sei / analysis-reuse-level=5 / scale-factor=0 / refine-intra=0 / refine-inter=0 / refine-mv=0 / no-limit-sao / ctu-info=0 / no-lowpass-dct / refine-mv-type=0 / copy-pic=1 / max-ausize-factor=1.0 / no-dynamic-refine / no-single-sei
    Language : English
    Default : Yes
    Forced : No
    Color range : Limited
    Color primaries : BT.2020
    Transfer characteristics : PQ
    Matrix coefficients : BT.2020 non-constant
    Mastering display color primar : Display P3
    Mastering display luminance : min: 0.0001 cd/m2, max: 1000 cd/m2
    Maximum Content Light Level : 996 cd/m2
    Maximum Frame-Average Light Le : 249 cd/m2

    Audio #1
    ID : 2
    Format : MLP FBA 16-ch
    Format/Info : Meridian Lossless Packing FBA with 16-channel presentation
    Commercial name : Dolby TrueHD with Dolby Atmos
    Codec ID : A_TRUEHD
    Duration : 2 h 9 min
    Bit rate mode : Variable
    Bit rate : 3 527 kb/s
    Maximum bit rate : 6 264 kb/s
    Channel(s) : 8 channels
    Channel layout : L R C LFE Ls Rs Lb Rb
    Sampling rate : 48.0 kHz
    Frame rate : 1 200.000 FPS (40 SPF)
    Compression mode : Lossless
    Stream size : 3.18 GiB (16%)
    Language : English
    Default : Yes
    Forced : No
    Number of dynamic objects : 11
    Bed channel count : 1 channel
    Bed channel configuration : LFE

    Audio #2
    ID : 3
    Format : AC-3
    Format/Info : Audio Coding 3
    Commercial name : Dolby Digital
    Codec ID : A_AC3
    Duration : 2 h 9 min
    Bit rate mode : Constant
    Bit rate : 640 kb/s
    Channel(s) : 6 channels
    Channel layout : L R C LFE Ls Rs
    Sampling rate : 48.0 kHz
    Frame rate : 31.250 FPS (1536 SPF)
    Bit depth : 16 bits
    Compression mode : Lossy
    Stream size : 592 MiB (3%)
    Language : English
    Service kind : Complete Main
    Default : No
    Forced : No

    Audio #3
    ID : 4
    Format : E-AC-3
    Format/Info : Enhanced AC-3
    Commercial name : Dolby Digital Plus
    Codec ID : A_EAC3
    Duration : 2 h 9 min
    Bit rate mode : Constant
    Bit rate : 640 kb/s
    Channel(s) : 6 channels
    Channel layout : L R C LFE Ls Rs
    Sampling rate : 48.0 kHz
    Frame rate : 31.250 FPS (1536 SPF)
    Compression mode : Lossy
    Delay relative to video : 988 ms
    Stream size : 592 MiB (3%)
    Language : Hindi
    Service kind : Complete Main
    Default : No
    Forced : Yes

    Text
    ID : 5
    Format : PGS
    Muxing mode : zlib
    Codec ID : S_HDMV/PGS
    Codec ID/Info : Picture based subtitle format used on BDs/HD-DVDs
    Duration : 2 h 7 min
    Bit rate : 21.4 kb/s
    Count of elements : 2220
    Stream size : 19.6 MiB (0%)
    Language : English
    Default : No
    Forced : No

    Menu
    00:00:00.000 : en:Chapter 01
    00:03:55.401 : en:Chapter 02
    00:07:33.119 : en:Chapter 03
    00:10:19.952 : en:Chapter 04
    00:14:44.383 : en:Chapter 05
    00:17:58.744 : en:Chapter 06
    00:23:33.245 : en:Chapter 07
    00:30:06.304 : en:Chapter 08
    00:35:35.633 : en:Chapter 09
    00:39:34.205 : en:Chapter 10
    00:42:58.909 : en:Chapter 11
    00:46:43.300 : en:Chapter 12
    00:49:02.606 : en:Chapter 13
    00:51:53.610 : en:Chapter 14
    00:58:00.643 : en:Chapter 15
    01:00:19.115 : en:Chapter 16
    01:02:29.746 : en:Chapter 17
    01:08:00.910 : en:Chapter 18
    01:10:29.225 : en:Chapter 19
    01:14:33.802 : en:Chapter 20
    01:18:23.365 : en:Chapter 21
    01:23:08.984 : en:Chapter 22
    01:25:55.817 : en:Chapter 23
    01:29:13.348 : en:Chapter 24
    01:31:51.672 : en:Chapter 25
    01:36:51.472 : en:Chapter 26
    01:41:55.275 : en:Chapter 27
    01:44:53.120 : en:Chapter 28
    01:48:06.659 : en:Chapter 29
    01:51:30.863 : en:Chapter 30
    01:55:05.912 : en:Chapter 31
    01:57:31.223 : en:Chapter 32
    02:00:12.384 : en:Chapter 33

    Dodano po 1 [minuty]:

    Dodam tylko że mam parę lat młodszy telewizor niż Panasonic kumpla...
  • #4
    MARCIN.SLASK
    Home appliances specialist
    Na pierwszy rzut okiem, to ten drugi powinien być łatwiej odtwarzany (ma dużo mniejszy przepływ danych), ale za to ma sporo różnych ustawień w zakładce: Encoding settings, czego pierwszy nie ma.
  • #5
    jarrod
    Level 21  
    Pierwszy film ma w sobie dwa strumienie wideo - jeden 4K a drugi 1080p.
    Użyj mkvtoolnix i usuń video 1080p. Zobacz czy pomogło.